北辰信息港

当前位置:

自己动手制作家具作文如何自己动手制作cu

2019/05/10 来源:北辰信息港

导读

1 : 如何自己动手制作cue文件如何自己动手制作cue文件?(cue什么意思?就是音乐目录清单,用作cd音乐分轨用的、如果要刻录成

1 : 如何自己动手制作cue文件

如何自己动手制作cue文件?

(cue什么意思?就是音乐目录清单,用作cd音乐分轨用的、如果要刻录成CD就是必须的!所以这1步是重点,必须学会!)

有许多朋友都为cue文件而苦恼,乃至好多已把没有cue文件的ape都删除掉啦,辛辛苦苦下载回来的好东西就这样灰飞烟灭啦,很惋惜!本人经太长时间的对照分析,找到了比较简单的制作cue的方法,我选择1张《雨果发热碟10》来作示范讲授,这是1个标准的cue格式文件,你用记事本打开这个cue文件,里面就是以下内容:

PERFORMER "雨果"

TITLE "发热碟10"

FILE "雨果.-.[发热碟10CDImage].[].ape" WAVE

TRACK 01 AUDIO

TITLE "奈何"

PERFORMER "雨果"

INDEX 01 00:00:00

TRACK 02 AUDIO

TITLE "原乡情浓[客家语版]"

PERFORMER "雨果"

INDEX 00 04:24:48

INDEX 01 04:29:14

TRACK 03 AUDIO

TITLE "我是1只画眉鸟"

PERFORMER "雨果"

INDEX 00 09:01:42

INDEX 01 09:05:70

TRACK 04 AUDIO

TITLE "深深的海洋[2002新视野艺术节《俄琴妙韵神州情》音乐会实况]"

PERFORMER "雨果"

INDEX 00 13:09:29

INDEX 01 13:12:66

TRACK 05 AUDIO

TITLE "山查树[2002新视野艺术节《俄琴妙韵神州情》音乐会实况]"

PERFORMER "雨果"

INDEX 00 16:21:69

INDEX 01 16:25:58

TRACK 06 AUDIO

TITLE "月光曲[2002新视野艺术节《俄琴妙韵神州情》音乐会实况]"

PERFORMER "雨果"

INDEX 00 19:56:03

INDEX 01 20:00:56

TRACK 07 AUDIO

TITLE "香巴拉其实不遥远"

PERFORMER "雨果"

cue文件 如何自己动手制作cue文件

INDEX 00 22:35:05

INDEX 01 22:39:10

TRACK 08 AUDIO

TITLE "青藏高原[黄红英演唱版]" PERFORMER "雨果"

INDEX 00 27:27:47

INDEX 01 27:31:68

TRACK 09 AUDIO

TITLE "鹿回头传奇[选段]" PERFORMER "雨果"

INDEX 00 31:37:26

INDEX 01 31:40:68

TRACK 10 AUDIO

TITLE "嘎达梅林[选段]" PERFORMER "雨果"

INDEX 00 36:25:72

INDEX 01 36:30:17

TRACK 11 AUDIO

TITLE "主是我的牧者" PERFORMER "雨果"

INDEX 00 40:57:44

INDEX 01 41:02:58

TRACK 12 AUDIO

TITLE "水边的萤火"

PERFORMER "雨果"

INDEX 00 45:21:43

INDEX 01 45:25:41

TRACK 13 AUDIO

TITLE "爱的罗曼史"

PERFORMER "雨果"

INDEX 00 49:35:15

INDEX 01 49:38:66

TRACK 14 AUDIO

TITLE "关山月"

PERFORMER "雨果"

INDEX 00 53:19:37

INDEX 01 53:23:16

TRACK 15 AUDIO

TITLE "祥林嫂"

PERFORMER "雨果"

INDEX 00 55:22:47

INDEX 01 55:27:61

cue文件 如何自己动手制作cue文件

现在对上面的内容解释1下:

PERFORMER “ ” 在引号里写好这张CD专辑的某些名称,比如唱片公司“雨果” TITLE“ ” 在引号里写好这张CD专辑的名称,比如“发热碟10”

FILE "文件名" WAVE 引号里填上文件名全称比如“雨果.-.[发热碟10CDImage].[].ape”,如果是wav,则为.wav

TRACK 01 AUDIO

TITLE "" 引号里写好第1曲的名称

PERformER "" 引号里写好比如发行唱片公司的名称

FLAGS DCP

INDEX 01 00:00:00(第1曲开始时间)

TRACK 02 AUDIO

TITLE ""

PERformER ""

FLAGS DCP

INDEX 00 04:30:47(第1曲结束时间)

INDEX 01 04:32:47(第2曲开始时间)(这两个中间的时间差就是空隙)

TRACK 03 AUDIO

TITLE ""

PERformER ""

FLAGS DCP

INDEX 00 07:59:02(第2曲结束时间)

INDEX 01 08:01:02(第3曲开始时间)(这两个中间的时间差就是空隙)

......

TRACK n AUDIO

TITLE ""

PERformER ""

FLAGS DCP

INDEX 00 xx:xx:xx(第n⑴曲结束时间)

INDEX 01 xx:xx:xx(第n曲开始时间)(这两个中间的时间差就是空隙)

有些cue文件没有INDEX 00 xx:xx:xx这1行,你在分割的时候可以设定去掉间隙时间,其实不影响使用,自己在制作时也能够不用这1行,以减少工作量。(]

你只需要播放ape文件,找到每一个曲子的起始时间,就能够自己手动制作cue,所花费的就是听1张碟子的时间,并且还可以检验ape文件的完全性,就是这么简单!

下1步:制作合适wav格式的cue文件……为wav格式文件专门制作cue文件,目地是为了终究刻录出来的CD加进并辨认出多个曲目的音轨!

在上1步的基础上,把“适合ape格式的cue文件”制作成“合适wav格式的cue文件”。非常简单!只需要改动3个字符!

把上1步“合适ape格式的cue文件”用记事本打开并“另存为”在同1个目录(注意要保存成

cue文件 如何自己动手制作cue文件

cue格式而非txt格式!),比如取名“e”,然后在e里面原wav文件名!

PERFORMER “ ” 在引号里写好这张CD专辑的某些名称,比如唱片公司“雨果” TITLE“ ” 在引号里写好这张CD专辑的名称,比如“发热碟10”

FILE "文件名" WAVE 引号里文件名比如“雨果.-.[发热碟10CDImage].[].ape”,

这里的文件名=源文件名+其后缀名,就是如果是wav文件,则引号里的文件名就是”源文件名.wav“,如果是ape文件,则引号里的文件就是”源文件名.ape”

修改方法(仅仅修改源文件名和其后缀名而已!):

只需要把第3行里面的文件名(源文件名加上其后缀名):

“雨果.-.[发热碟10CDImage].[].ape” 改成: “雨果.-.[发热碟10CDImage].[].wav”

就ok了!仅仅改动3个字符!简单啊!保存后退出,这个时候用foobar2000打开这个合适wav格式的cue文件,应当能够播放,如果不能,那么多是你的那个文件名和文件的后缀名比如.wav没有严格跟源文件名1模1样!上面这1个例子中,仅仅改变了3个字符就作成了”合适wav格式的cue文件“!真是好简单啊!

特别提示:

1、不管源文件是……ape文件还是wav文件,或是那个目录清单cue……”合适ape格式的cue文件“还是”合适wav格式的cue文件“,换句话理解就是“专门为ape源文件而制作的cue文件”或“专门为wav源文件而制作的cue文件”,都应当放在硬盘上同1个目录、这样播放软件、刻录软件或其它软件就可以找到它们并正确播放,cue的意思就是“目录清单”的意思、在CD里面可以理解为音乐曲目分轨信息。()没有这个目录清单,刻录cd就分辨不出多个音轨!其实用feurio刻录软件刻录成终究CD,真正要用到的是那个wav源文件和那个为wav源文件而专门制作的cue文件……就是那个”合适wav格式的cue文件“…………真实的是:feurio就会自动依照那个“专门为wav文件而定制的cue”分轨信息而把硬盘上的那个wav源文件刻录到CD中去!

2、注意,上面的那个用红色表示的雨果发热碟10是1个标准的cue文件,是万能的(其它任何需要用到cue格式的文件都可以以这个作标准参考和)!可以用记事本保存成cue文件格式!再次强调,要保存成cue格式的而非txt格式!

2 : 怎样自己制作手指滑板道具?

怎样自己制作手指道具?

有模子,没有模子的话也能够用木板或塑料板之类的固定后,灌入石膏,并适当搅动,让它均匀散布,于阴凉处放上3天左右卸下模子,然后打磨光滑(此时内部可能还未完全干,要避免出现裂缝),上色装璜甚么的就差不多了。不过要非常谨慎,不然做出来不平整。

有用的话,给个好评吧O(∩_∩)O~

3 : 2手房翻新自己动手 旧家具旧地板翻新so easy

地板翻新

花费不多但工序很多

很多老房子里的装修,虽然看上去破旧不堪,但仔细查看,还能发现点“老古董”。[]友小白去年买了1套学区房,房东留下来的地板、衣柜等都是上等实木做的,但由于长时间踩踏,地板表面已失去光泽,而且有较多的划痕,有的地方踩上去还有响声。小白决定将地板全部翻新,可跑到几个卖场1问,鲜有地板品牌愿意翻新,而愿意翻新的60多平方米的小房子开价6000多元。

“这个价格不如买层复合地板直接铺在实木地板上了,但由于孩子太小,还是用原来的实木地板放心。”小白和施工队的师傅1商量,不如自己动手了。“地板翻新要先把表面的划痕打磨掉,然后找平、上漆,如果地板有响声,还要找地板安装师傅来进行调剂,如果有时间,自己再打个蜡就更好了。”说干就干,趁着工人刚开始做水电,小白和老公在上买了砂纸回去,第1道工序比较简单,而且需要仔细的人干,“我和老公花了两天时间,把家里的地板仔细打磨了3遍,有的地板表面的老漆已掉光了,打磨完了就出现本质了。”

第2道工序和第3道工序就由工人来完成了,小白记得1共刷了3遍漆。“地板的花纹都是天然的,所以上了漆后对色彩改变不大,但看起来更光亮了。”小白还找了1个专业的地板安装工,将家里的地板仔细加固调剂了1遍,只花了1百元钱,但踩上去没有任何声响了。“连上买地板蜡和踢脚线的钱,1共花了不到1千元,很超值。”小白说,地板是胡桃木的,现在市场上要34百元/平方米,而自己只花了不到1千元,家里的地板如今跟新买的1样。

“地板翻新只限于实木类地板。”鑫屋地板副总经理黄玉德介绍,很多业主买了2手房就直接将地板撤除,其实有的实木地板是可以再次利用的,特别是表面层厚度到达4毫米以上的地板,但复合地板或已进水产生霉变的实木地板就不建议翻新了。

旧家具翻新

换个色彩就可以换个面貌

上了年纪的旧家具,也能改造1新。“很多旧家具的造型比较简约,有着很大的改造空间,可以换个新色采,或在家具上画1些生动的图案搭配新的装修风格,这样整体氛围也就活泼时尚起来了。”平顶山装修公司设计师介绍,老房子里中式烦琐的家具大多是深色调,如果刷个白漆,就显得“年轻”了很多,如果能在墙面上做点文章就更好了,“比如墙面重新刷个色彩、贴点壁纸、挂个色采亮丽的油画等,让旧家具翻新以后能更快地融入新环境。”

“衣柜或床、床头柜都可以采取奇妙的包装手法,衣柜换个推拉门,床头加个软包,床头柜换个时尚的拉手,就立马有了全新的面貌。”黄莉回想,她曾设计过1套2手房“爱的森林”,餐厅保存了整套旧家具,用白漆改变其色调,竟收获了北欧风格餐椅的效果。旧餐桌上铺上黑色烤漆玻璃,既时尚又能挡住旧餐桌原本的面貌。而出彩的则是主卧,原本的红色中式家具色彩老旧,不合适年轻人,但这1套家具做工考究,属于上等实木,扔掉了非常惋惜。黄莉和工人商量了以后,将床头柜、衣柜全部刷成了白色,床的底边也全部刷白。窗帘采取了黑灰色调带花朵图案,再将窗帘余下的布料做成了床头的软包,和窗帘相互呼应,而墙上则手工画了飘逸的郁金香图案,窗帘、床头软包和墙面保持着风格1致的图案,和“爱的森林”主题相互呼应,而这1套做下来的本钱也非常低。

小儿柴桂退热颗粒
葵花胃康灵
小儿柴桂退热颗粒
标签